[Login] or [Signup]

,
Login
Username:
Password:
[Signup]
[Recover Account]

Latest Posters
Aata - The Game of Fear (2019 - Ouija Game Never Ends  Hindi Dubbed) - 720p - HD Rip[x264 - AC3(5.1Ch)] - 1 GB / South-Dubbed - Movies
Natasaarvabhowma (2019) Kannada - 720p - HDRIP - DD2.0 - x264 - 1.2GB / Kannada - Movies
Yaaran.De.Yaar.2017.Punjabi.576.AMZN.WeB.DL.H264.DDP.2.0.Dus.IcTv.(BwTorrents) / Punjabi - Movies
The Accidental Prime Minister [2019] Hindi Webhd 1080p x 265 (hevc) - 10Bit DD 2.0 - Esub - [Cinemaghar]  / Bollywood - WebRips
Junglee.(2019).Hindi.720p.HDRip.x264.AAC.ESubs-=!MrSky!=- / Bollywood - WebRips
Aisa.Yeh.Jahaan.2015.Hindi.272p.AMZN.WeB.DL.H264.AAC.2.0.Dus.IcTv.(bwtorrents) / Bollywood - WebHD



Torrent Details For "Fuh se Fantasy [2019] - voot org. S01 - [Ep 01-04] 1080p Untouched webdl x 264 AVC AAC By ..."

Fuh se Fantasy [2019] - voot org. S01 - [Ep 01-04] 1080p Untouched webdl x 264 AVC AAC By ...

Download this torrent -- Magnet Download

Health:
Seeds: 4,976
Leechers: 6,124
Completed: 6,007 
Last Checked: 23-05-2019 08:08:50
External Torrent
UPDATE_STATS


Details
Name:Fuh se Fantasy [2019] - voot org. S01 - [Ep 01-04] 1080p Untouched webdl x 264 AVC AAC By ...
Description:
[center]Fuh se Fantasy [2019] - voot org. S01 - [Ep 01-04] 1080p Untouched webdl x 264 AVC AAC By Team Cinemaghar xclusive





xclusive

- By Team Cinemaghar




General
Complete name                            : E:\Fuh se Fantasy [2019] - voot org. S01 - [Ep 01-04] 1080p Untouched webdl x 264 AVC AAC By Team Cinemaghar\Fuh se Fantasy - Season 01 - Episode 01 #Fantasy Nyotaimori Episode 1 1080 x 1920.mp4
Format                                   : MPEG-4
Format profile                           : Base Media
Codec ID                                 : isom (isom/iso2/avc1/mp41)
File size                                : 725 MiB
Duration                                 : 38 min 50 s
Overall bit rate mode                    : Variable
Overall bit rate                         : 2 609 kb/s
Writing application                      : Lavf58.9.100

Video
ID                                       : 1
Format                                   : AVC
Format/Info                              : Advanced Video Codec
Format profile                           : [email protected]
Format settings                          : CABAC / 5 Ref Frames
Format settings, CABAC                   : Yes
Format settings, RefFrames               : 5 frames
Codec ID                                 : avc1
Codec ID/Info                            : Advanced Video Coding
Duration                                 : 38 min 50 s
Bit rate                                 : 2 500 kb/s
Width                                    : 1 920 pixels
Height                                   : 1 080 pixels
Display aspect ratio                     : 16:9
Frame rate mode                          : Constant
Frame rate                               : 25.000 FPS
Color space                              : YUV
Chroma subsampling                       : 4:2:0
Bit depth                                : 8 bits
Scan type                                : Progressive
Bits/(Pixel*Frame)                       : 0.048
Stream size                              : 687 MiB (95%)
Writing library                          : x264 core 152
Encoding settings                        : cabac=1 / ref=6 / deblock=1:0:0 / analyse=0x3:0x111 / me=hex / subme=7 / psy=1 / psy_rd=1.00:0.00 / mixed_ref=1 / me_range=16 / chroma_me=1 / trellis=1 / 8x8dct=1 / cqm=0 / deadzone=21,11 / fast_pskip=1 / chroma_qp_offset=-2 / threads=4 / lookahead_threads=1 / sliced_threads=0 / nr=0 / decimate=1 / interlaced=0 / bluray_compat=0 / stitchable=1 / constrained_intra=0 / bframes=16 / b_pyramid=1 / b_adapt=1 / b_bias=0 / direct=1 / weightb=1 / open_gop=0 / weightp=2 / keyint=86400 / keyint_min=20 / scenecut=40 / intra_refresh=0 / rc_lookahead=40 / rc=cbr / mbtree=1 / bitrate=2500 / ratetol=1.0 / qcomp=0.60 / qpmin=10 / qpmax=50 / qpstep=4 / vbv_maxrate=2500 / vbv_bufsize=5000 / nal_hrd=none / filler=0 / ip_ratio=1.41 / aq=1:1.00
Codec configuration box                  : avcC

Audio
ID                                       : 2
Format                                   : AAC LC
Format/Info                              : Advanced Audio Codec Low Complexity
Codec ID                                 : mp4a-40-2
Duration                                 : 38 min 50 s
Bit rate mode                            : Variable
Bit rate                                 : 128 kb/s
Maximum bit rate                         : 130 kb/s
Channel(s)                               : 2 channels
Channel layout                           : L R
Sampling rate                            : 44.1 kHz
Frame rate                               : 43.066 FPS (1024 SPF)
Compression mode                         : Lossy
Stream size                              : 35.6 MiB (5%)
Default                                  : Yes
Alternate group                          : 1



[img] [/img]



[/center]
Category:Bollywood > WebHD
Lang:Hindi
Total Size:1.97 GB
Info Hash:ac3068ccc3ef38ddab6ca53879de10de411c100b
Added By:Cinemaghar
Date Added:17-04-2019 15:24:33
Views:135
Hits:27


Ratings:Not Yet Rated (Log in to rate it)

  


Tracker:
udp://tracker.opentrackr.org:1337/announce

This Torrent also has backup trackers
URLSeedersLeechersCompleted
http://tracker.electro-torrent.pl:80/announce1011
http://retracker.mgts.by:80/announce337
http://t.nyaatracker.com:80/announce010
https://bwt.pw/announce.php4,9726,1245,963


File List: 


Comments

<< Previous      Next >>
1 - 1

[Report] Posted: 17-04-2019 at 16:54:05
SHADNAN



Uploaded: 997.27 MB
Downloaded: 1.18 GB
Ratio: 0.82

:)  :-)  :love  :love

1 - 1
<< Previous      Next >>


Search











Most Active
Halla.Gulla.(2015)...
- [S: 4,294,967,295 - L: 4,294,967,295]

Abhay.[2019].Zee5....
- [S: 588,320 - L: 117,159]

Shikari.(2018).HDT...
- [S: 63,084 - L: 139,328]

Gully Boy.(2019).7...
- [S: 1,760 - L: 16,129]

The Protector S02 ...
- [S: 676 - L: 12,036]

Gully Boy.(2019).1...
- [S: 2,421 - L: 9,504]

Fuh se Fantasy [20...
- [S: 4,976 - L: 6,124]

Gully Boy (2019) H...
- [S: 6,186 - L: 3,461]

The Tashkent Files...
- [S: 3,774 - L: 3,226]

Dirty Model.2015.H...
- [S: 2,477 - L: 3,991]


Page Generated In 0.000000 secs.