[Login] or [Signup]

,
Search











Latest Posters
Pashan (2018) Bengali Movie - HDRip[x264 - AAC(5.1Ch) / Bangla - Movies
Mantra 2 (2019) Hindi Dubbed Movie HDRip 750MB / Hindi Dubbed - Movies
Hello Guru Prema Kosame 2018 Dual Audio Hindi UNCUT 720p HDRip 750MB / Hindi Dubbed - Movies
Darr Ka Awaaz (2019) Hindi Dubbed Movie HDRip 750MB / Hindi Dubbed - Movies
Veeri Veeri Gummadi Pandu 2019 Hindi Dubbed Movie HDRip 700mb / Hindi Dubbed - Movies
Tiger Galli 2019 Hindi Dubbed Movie HDRip 700mb / Hindi Dubbed - Movies

Torrent Details For "Ishq Vishk (2003) Hindi 1080p Untouched WebHD AVC DDP 5.1 {Music Video} ESuBS By-DusIcTv"

Ishq Vishk (2003) Hindi 1080p Untouched WebHD AVC DDP 5.1 {Music Video} ESuBS By-DusIcTv

Download this torrent -- Magnet Download

Health:
Seeds: 0
Leechers: 6
Completed:
Last Checked: 06-12-2019 03:25:51
External Torrent
UPDATE_STATS


Details
Name:Ishq Vishk (2003) Hindi 1080p Untouched WebHD AVC DDP 5.1 {Music Video} ESuBS By-DusIcTv
Description:



Ishq Vishk (2003) Hindi 1080p Untouched WebHD AVC DDP 5.1 {Music Video} ESuBS By-DusIcTv

Media info
Format                         : Matroska
Format version                 : Version 4
File size                      : 1.51 GB
Overall bit rate mode          : Variable
Overall bit rate               : 7 912 kb/s
Writing library : libebml v1.3.6 + libmatroska v1.4.9 / Lavf58.0.0


Video
ID                             : 1
Format                         : AVC
Format/Info                    : Advanced Video Codec
Format profile                 : [email protected]
Format settings                : CABAC / 3 Ref Frames
Format settings, CABAC         : Yes
Format settings, ReFrames      : 3 frames
Codec ID                       : V_MPEG4/ISO/AVC
Bit rate mode                  : Variable
Bit rate                       : 7 269 kb/s
Maximum bit rate               : 10.7 Mb/s
Width                          : 1 920 pixels
Height                         : 1 080 pixels
Display aspect ratio           : 16:9
Frame rate mode                : Constant
Frame rate                     : 25.000 FPS
Color space                    : YUV
Chroma subsampling             : 4:2:0
Bit depth                      : 8 bits
Scan type                      : Progressive
Bits/(Pixel*Frame)             : 0.140
Stream size                    : 168 MiB (92%)
Default                        : Yes
Forced                         : No


Audio
ID                             : 2
Format                         : E-AC-3
Format/Info                    : Enhanced AC-3
Commercial name                : Dolby Digital Plus
Codec ID                       : A_EAC3
Bit rate mode                  : Constant
Bit rate                       : 640 kb/s
Channel(s)                     : 6 channels
Channel layout                 : L R C LFE Ls Rs
Sampling rate                  : 48.0 kHz
Frame rate                     : 31.250 FPS (1536 SPF)
Compression mode               : Lossy
Delay relative to video        : 16 ms
Stream size                    : 14.8 MiB (8%)
Service kind                   : Complete Main
Default                        : Yes
Forced                         : No


Text #1
ID                             : 3
Format                         : UTF-8
Codec ID                       : S_TEXT/UTF8
Codec ID/Info                  : UTF-8 Plain Text
Bit rate                       : 90 b/s
Count of elements              : 32
Stream size                    : 1.97 KiB (0%)
Title                          : English
Language                       : English
Default                        : Yes
Forced                         : Yes


Text #2
ID                             : 4
Format                         : UTF-8
Codec ID                       : S_TEXT/UTF8
Codec ID/Info                  : UTF-8 Plain Text
Bit rate                       : 90 b/s
Count of elements              : 32
Stream size                    : 1.96 KiB (0%)
Title                          : French
Language                       : French
Default                        : No
Forced                         : No


Text #3
ID                             : 5
Format                         : UTF-8
Codec ID                       : S_TEXT/UTF8
Codec ID/Info                  : UTF-8 Plain Text
Bit rate                       : 91 b/s
Count of elements              : 32
Stream size                    : 1.98 KiB (0%)
Title                          : Portuguese
Language                       : Portuguese
Default                        : No
Forced                         : No


Text #4
ID                             : 6
Format                         : UTF-8
Codec ID                       : S_TEXT/UTF8
Codec ID/Info                  : UTF-8 Plain Text
Bit rate                       : 103 b/s
Count of elements              : 32
Stream size                    : 2.24 KiB (0%)
Title                          : European Spanish
Language                       : Spanish
Default                        : No
Forced                         : No


Text #5
ID                             : 7
Format                         : UTF-8
Codec ID                       : S_TEXT/UTF8
Codec ID/Info                  : UTF-8 Plain Text
Bit rate                       : 114 b/s
Count of elements              : 32
Stream size                    : 2.48 KiB (0%)
Title                          : German
Language                       : German
Default                        : No
Forced                         : No

|Note-----------------------------> We have https://bwt.pw/index.php

ScreenShot


This Movie Songs Rip By @Special26


==========================================================
Note: We have moved to ---->> https://bwt.pw/index.php 
==========================================================



Don't Forget To Give Comments And Thanks...
Category:Bollywood > Videos
Lang:Hindi
Total Size:1.51 GB
Info Hash:030b1db01bbb5093c61037e501d99d34576ace5f
Added By:24x
Date Added:18-04-2019 21:43:16
Views:236
Hits:56


Ratings:Not Yet Rated (Log in to rate it)


Tracker:
udp://tracker.pirateparty.gr:6969/announce

This Torrent also has backup trackers
URLSeedersLeechersCompleted
https://tracker.fastdownload.xyz:443/announce000
http://tracker.torrentyorg.pl:80/announce000
http://vps02.net.orel.ru:80/announce100


File List: 


Comments

<< Previous      Next >>
1 - 1

[Report] Posted: 17-05-2019 at 19:47:25
ChVatsal



Uploaded: 1.84 MB
Downloaded: 3.86 MB
Ratio: 0.48

thanks bro :love  :love

1 - 1
<< Previous      Next >>


Page Generated In 0.000000 secs.