[Login] or [Signup]

,
Search











Latest Posters
Pow pandi 2019 Hindi Dubbed Movie Dhanush HDRip 800MB / Hindi Dubbed - Movies
Mirch Masala 2019 Hindi Dubbed Movie HDRip 800MB / Hindi Dubbed - Movies
Kabar Ka Keher 2019 Hindi Dubbed Movie HDRip 800MB / Hindi Dubbed - Movies
Gabbar Sher 2019 Hindi Dubbed Movie HDRip 800MB / Hindi Dubbed - Movies
Apman Ki Aag 2019 Hindi Dubbed Movie HDRip 800MB / Hindi Dubbed - Movies
Aag Ka Gola 2019 Hindi Dubbed Movie HDRip 800MB / Hindi Dubbed - Movies

Torrent Details For "Zindagi Gulzar Hai - 26 Episodes - 1080p Urdu NF WEB-DL DDP 2.0 ESub - DusIcTv"

Zindagi Gulzar Hai - 26 Episodes - 1080p Urdu NF WEB-DL DDP 2.0 ESub - DusIcTv

Download this torrent -- Magnet Download

Health:
Seeds: 0
Leechers: 0
Completed:
Last Checked: 13-09-2019 17:41:54
External Torrent
UPDATE_STATS


Details
Name:Zindagi Gulzar Hai - 26 Episodes - 1080p Urdu NF WEB-DL DDP 2.0 ESub - DusIcTv
Description:



Zindagi Gulzar Hai - 26 Episodes - 1080p Urdu NF WEB-DL DDP 2.0 ESub - DusIcTv


General
Complete name                            : Episode 3.mkv
Format                                   : Matroska
Format version                           : Version 4 / Version 2
File size                                : 844 MiB
Duration                                 : 38 min 23 s
Overall bit rate mode                    : Variable
Overall bit rate                         : 3 075 kb/s
Encoded date                             : UTC 2019-03-10 08:34:07
Writing application                      : mkvmerge v30.1.0 ('Forever And More') 64-bit
Writing library                          : libebml v1.3.6 + libmatroska v1.4.9

Video
ID                                       : 1
Format                                   : AVC
Format/Info                              : Advanced Video Codec
Format profile                           : [email protected]
Format settings                          : CABAC / 4 Ref Frames
Format settings, CABAC                   : Yes
Format settings, RefFrames               : 4 frames
Codec ID                                 : V_MPEG4/ISO/AVC
Duration                                 : 38 min 23 s
Bit rate mode                            : Variable
Bit rate                                 : 2 945 kb/s
Maximum bit rate                         : 20.0 Mb/s
Width                                    : 1 920 pixels
Height                                   : 1 080 pixels
Display aspect ratio                     : 16:9
Frame rate mode                          : Constant
Frame rate                               : 25.000 FPS
Color space                              : YUV
Chroma subsampling                       : 4:2:0
Bit depth                                : 8 bits
Scan type                                : Progressive
Bits/(Pixel*Frame)                       : 0.057
Stream size                              : 809 MiB (96%)
Writing library                          : x264 core 148 r2714 2daf636
Default                                  : Yes
Forced                                   : No

Audio
ID                                       : 2
Format                                   : E-AC-3
Format/Info                              : Enhanced Audio Coding 3
Codec ID                                 : A_EAC3
Duration                                 : 38 min 23 s
Bit rate mode                            : Constant
Bit rate                                 : 128 kb/s
Channel(s)                               : 2 channels
Channel positions                        : Front: L R
Sampling rate                            : 48.0 kHz
Frame rate                               : 187.500 FPS (256 SPF)
Compression mode                         : Lossy
Stream size                              : 35.2 MiB (4%)
Service kind                             : Complete Main
Default                                  : Yes
Forced                                   : No

Text
ID                                       : 3
Format                                   : UTF-8
Codec ID                                 : S_TEXT/UTF8
Codec ID/Info                            : UTF-8 Plain Text
Duration                                 : 38 min 21 s
Bit rate                                 : 85 b/s
Count of elements                        : 580
Stream size                              : 24.0 KiB (0%)
Title                                    : English
Language                                 : English
Default                                  : Yes
Forced                                   : Yes







Quote:

- 1080p WEBHD, 2.0 Audio & English Subtitle!
- Enjoy DUS Exclusive Release!

In case of re-seed on any torrent, please pm.
If you share this torrent anywhere, give credits to LP1 @ DUS.
Category:Pakistani > TV Shows
Lang:Urdu
Total Size:24.45 GB
Info Hash:6990aba13ea2d511ebd7992c47721d50f917b273
Added By:LP1BWT
Date Added:03-04-2019 12:19:54
Views:172
Hits:122


Ratings:Not Yet Rated (Log in to rate it)

  


Tracker:
udp://tracker.coppersurfer.tk:6969/announce


File List: 


Comments

NOCOMMENTS

Page Generated In 0.000000 secs.