[Login] or [Signup]

,
Search











Latest Posters
Angry Indian Goddesses (2015) Hindi - 720p WEB-DL -x264 - AAC 5.1 - ESub - Sun George / Bollywood - WebHD
Kaafir (2019) Hindi - {Season 01} - 720p WEB-DL - x264 - AAC 2.0 - Sun George / 18+ - Web Series
Reunion (2019) Bengali Movie 480p HDRip 1GB x264 / Bangla - Movies
Amar Akbhar Anthoni 2019 Hindi Dubbed Movie   Ravi Teja HDRip 750Mb / Hindi Dubbed - Movies
Amar Akbhar Anthoni (2019) 1080p UntoucheD Hindi WEBHD - AVC - AAC - DUSICTV Xclusive.mp4 / South-Dubbed - Movies
Mohan Vadani (Mo) 2019 Hindi 750MB HDTVRip 720p HEVC x265 / Hindi Dubbed - Movies


Torrent Details For "The Protector S02 1080p NF WEB-DL x264 [Hindi - English] DDP5.1 - MSUBS ~ Ranvijay [Team S..."

The Protector S02 1080p NF WEB-DL x264 [Hindi - English] DDP5.1 - MSUBS ~ Ranvijay [Team S...

Download this torrent -- Magnet Download

Health:
Seeds: 740
Leechers: 12,080
Completed: 303 
Last Checked: 05-06-2019 14:53:54
External Torrent
UPDATE_STATS


Details
Name:The Protector S02 1080p NF WEB-DL x264 [Hindi - English] DDP5.1 - MSUBS ~ Ranvijay [Team S...
Description:






The Protector S02 1080p NF WEB-DL x264 [Hindi - English] DDP5.1 - MSUBS ~ Ranvijay [Team SSX]

Thanks To The Punisher For Hindi Audio

Click Below Link To join Us On Telegram

https://t.me/sharesparkwavesector

Buy RDP Online



Format                                   : Matroska
Format version                           : Version 4
File size                                : 1.38 GiB
Duration                                 : 40 min 18 s
Overall bit rate mode                    : Variable
Overall bit rate                         : 4 897 kb/s
Movie name                               : The Protector S02E01 1080p NF WEB-DL x264 [Hindi - English] DDP5.1 - MSUBS ~ Ranvijay

Video
ID                                       : 1
Format                                   : AVC
Format/Info                              : Advanced Video Codec
Duration                                 : 40 min 18 s
Bit rate mode                            : Variable
Bit rate                                 : 3 650 kb/s
Maximum bit rate                         : 5 475 kb/s
Width                                    : 1 920 pixels
Height                                   : 1 080 pixels
Display aspect ratio                     : 16:9
Frame rate mode                          : Constant
Frame rate                               : 24.000 FPS
Color space                              : YUV
Chroma subsampling                       : 4:2:0
Bit depth                                : 8 bits
Scan type                                : Progressive
Bits/(Pixel*Frame)                       : 0.073
Stream size                              : 1 015 MiB (72%)
Title                                    : ~Ranvijay~

Audio #1
ID                                       : 2
Format                                   : E-AC-3
Format/Info                              : Enhanced AC-3
Commercial name                          : Dolby Digital Plus
Codec ID                                 : A_EAC3
Duration                                 : 40 min 18 s
Bit rate mode                            : Constant
Bit rate                                 : 640 kb/s
Channel(s)                               : 6 channels
Channel layout                           : L R C LFE Ls Rs
Sampling rate                            : 48.0 kHz
Frame rate                               : 31.250 FPS (1536 SPF)
Compression mode                         : Lossy
Stream size                              : 185 MiB (13%)
Title                                    : ~Ranvijay~
Language                                 : Hindi
Service kind                             : Complete Main
Default                                  : Yes
Forced                                   : Yes

Audio #2
ID                                       : 3
Format                                   : E-AC-3
Format/Info                              : Enhanced AC-3
Commercial name                          : Dolby Digital Plus
Codec ID                                 : A_EAC3
Duration                                 : 40 min 18 s
Bit rate mode                            : Constant
Bit rate                                 : 640 kb/s
Channel(s)                               : 6 channels
Channel layout                           : L R C LFE Ls Rs
Sampling rate                            : 48.0 kHz
Frame rate                               : 31.250 FPS (1536 SPF)
Compression mode                         : Lossy
Stream size                              : 185 MiB (13%)
Title                                    : ~Ranvijay~
Language                                 : English
Service kind                             : Complete Main
Default                                  : No
Forced                                   : No

Subtitle                                           : Eng, Turkish, Polish, Dutch, European Spanish, Brazilian Portuguese, Russian, French, Finnish,
Italian, German, Indonesian, Polish, Portuguese, Danish, Swedish, Greek, Norwegian

















Category:Hollywood > TV Shows
Lang:Hindi
Total Size:11.97 GB
Info Hash:d0149f4bf233fb70a7422efc0179c8380795997c
Added By:TheFighter
Date Added:27-04-2019 08:40:57
Views:118
Hits:20


Ratings:Not Yet Rated (Log in to rate it)

  


Tracker:
udp://tracker.pirateparty.gr:6969/announce

This Torrent also has backup trackers
URLSeedersLeechersCompleted
http://retracker.mgts.by:80/announce000
http://tracker.electro-torrent.pl:80/announce1011
https://tracker.fastdownload.xyz:443/announce100
http://tracker.torrentyorg.pl:80/announce1011
https://bwt.pw/announce.php67612,0360
http://t.nyaatracker.com:80/announce000
https://seeders-paradise.org:443/announce000
https://tracker.fastdownload.xyz:443/announce100
http://vps02.net.orel.ru:80/announce100
http://share.camoe.cn:8080/announce000
http://open.acgnxtracker.com:80/announce010


File List: 


Comments

NOCOMMENTS

Page Generated In 0.000000 secs.